COVID-19 - Последняя информация о коронавирусе на сайте Минздрава




Торрент файл
скачать торрент магнет ссылка Добавлен: 22 фев 2021, 14:18
Размер: 4.83 ГБ
Сидеров: 0
Личеров: 0
Статус: (salma3)
Автор

СообщениеДобавлено: 22 фев 2021, 14:18 

Не в сети
Супермодератор
Аватара пользователя
Дата регистрации:
15 фев 2012, 16:44
Возраст: 31
Спасибо: 8280 / 2148
Сообщения: 96711
Год выхода: 2000
Жанр: комедия, криминал
Режиссер: Ник Гомез

В ролях: энни ДеВито, Бетт Мидлер, Нив Кэмпбелл, Джейми Ли Кёртис, Кейси Аффлек, Уильям Фихтнер, Маркус Томас, Питер Добсон, Кэтлин Уилхойт, Трейси Уолтер

О фильме:
Убийство эксцентричной Моны Дирли открыло мудрому шерифу удивительный секрет: почти все в городке ненавидели эту женщину и все, выходит, были готовы утопить ее... По ходу дела выясняется, что его же собственная дочь замужем за главным подозреваемым, а коварная официантка готова разбить сердце и веселому вдовцу, и его сыну одновременно.



Страна: США
Продолжительность: 01:36:00
Перевод: Профессиональный многоголосый, закадровый [НТВ+, РТР]; авторский [Ю.Сербин]

Файл
Кодек: H.264
Качество: WEB-DL 720p
Видео: AVC, 1280x688 (1.85:1), 23.976 fps ~ 6000 Kbps
Звук:
AC3, 48 KHz, 2 ch ~ 192 Kb/s (НТВ+)
AC3, 48 KHz, 2 ch ~ 192 Kb/s (РТР)
AC3, 48 KHz, 2 ch ~ 192 Kb/s (авторский)
E-Ac3, 48 KHz, 6 ch ~ 640 Kb/s (английский)
AC3, 48 KHz, 2 ch ~ 192 Kb/s (english commentary)
Субтитры: английские

Общее
Уникальный идентификатор : 238225674913253164456926158659903684016 (0xB3389898F17B30C9BE664A9FB6D5FDB0)
Полное имя : J:wotDrowning.Mona.2000.720p.mkv
Формат : Matroska
Версия формата : Version 4
Размер файла : 4,83 Гбайт
Продолжительность : 1 ч. 35 м.
Общий поток : 7 203 Кбит/сек
Дата кодирования : UTC 2021-02-21 18:48:27
Программа кодирования : mkvmerge v7.7.0 ('Six Voices') 32bit built on Feb 28 2015 23:23:00
Библиотека кодирования : libebml v1.3.1 + libmatroska v1.4.2

Видео
Идентификатор : 1
Формат : AVC
Формат/Информация : Advanced Video Codec
Профиль формата : High@L3.1
Настройки формата : CABAC / 4 Ref Frames
Параметр CABAC формата : Да
Параметр RefFrames формата : 4 кадра
Идентификатор кодека : V_MPEG4/ISO/AVC
Продолжительность : 1 ч. 35 м.
Вид битрейта : Постоянный
Битрейт : 6 000 Кбит/сек
Ширина : 1 280 пикселей
Высота : 688 пикселей
Соотношение сторон : 1,85:1
Соотношение сторон в оригинале : 1,85:1
Режим частоты кадров : Постоянный
Частота кадров : 23,976 (24000/1001) кадра/сек
Цветовое пространство : YUV
Субдискретизация насыщенности : 4:2:0
Битовая глубина : 8 бит
Тип развёртки : Прогрессивная
Бит/(Пиксели*Кадры) : 0.284
Размер потока : 3,88 Гбайт (80%)
Язык : English
Default : Да
Forced : Нет
Цветовой диапазон : Limited
Основные цвета : BT.709
Характеристики трансфера : BT.709
Коэффициенты матрицы : BT.709

Аудио #1
Идентификатор : 2
Формат : AC-3
Формат/Информация : Audio Coding 3
Коммерческое название : Dolby Digital
Идентификатор кодека : A_AC3
Продолжительность : 1 ч. 35 м.
Вид битрейта : Постоянный
Битрейт : 192 Кбит/сек
Каналы : 2 канала
Channel layout : L R
Частота : 48,0 КГц
Частота кадров : 31,250 кадров/сек (1536 SPF)
Метод сжатия : С потерями
Размер потока : 132 Мбайт (3%)
Заголовок : НТВ+
Язык : Russian
Service kind : Complete Main
Default : Да
Forced : Нет

Аудио #2
Идентификатор : 3
Формат : AC-3
Формат/Информация : Audio Coding 3
Коммерческое название : Dolby Digital
Идентификатор кодека : A_AC3
Продолжительность : 1 ч. 35 м.
Вид битрейта : Постоянный
Битрейт : 192 Кбит/сек
Каналы : 2 канала
Channel layout : L R
Частота : 48,0 КГц
Частота кадров : 31,250 кадров/сек (1536 SPF)
Метод сжатия : С потерями
Размер потока : 132 Мбайт (3%)
Заголовок : РТР
Язык : Russian
Service kind : Complete Main
Default : Нет
Forced : Нет

Аудио #3
Идентификатор : 4
Формат : AC-3
Формат/Информация : Audio Coding 3
Коммерческое название : Dolby Digital
Идентификатор кодека : A_AC3
Продолжительность : 1 ч. 35 м.
Вид битрейта : Постоянный
Битрейт : 192 Кбит/сек
Каналы : 2 канала
Channel layout : L R
Частота : 48,0 КГц
Частота кадров : 31,250 кадров/сек (1536 SPF)
Метод сжатия : С потерями
Размер потока : 132 Мбайт (3%)
Заголовок : A
Язык : Russian
Service kind : Complete Main
Default : Нет
Forced : Нет

Аудио #4
Идентификатор : 5
Формат : E-AC-3
Формат/Информация : Enhanced AC-3
Коммерческое название : Dolby Digital Plus
Идентификатор кодека : A_EAC3
Продолжительность : 1 ч. 35 м.
Вид битрейта : Постоянный
Битрейт : 640 Кбит/сек
Каналы : 6 каналов
Channel layout : L R C LFE Ls Rs
Частота : 48,0 КГц
Частота кадров : 31,250 кадров/сек (1536 SPF)
Метод сжатия : С потерями
Размер потока : 439 Мбайт (9%)
Язык : English
Service kind : Complete Main
Default : Нет
Forced : Нет

Аудио #5
Идентификатор : 6
Формат : AC-3
Формат/Информация : Audio Coding 3
Коммерческое название : Dolby Digital
Идентификатор кодека : A_AC3
Продолжительность : 1 ч. 35 м.
Вид битрейта : Постоянный
Битрейт : 192 Кбит/сек
Каналы : 2 канала
Channel layout : L R
Частота : 48,0 КГц
Частота кадров : 31,250 кадров/сек (1536 SPF)
Метод сжатия : С потерями
Размер потока : 132 Мбайт (3%)
Заголовок : Commentary
Язык : English
Service kind : Complete Main
Default : Нет
Forced : Нет

Текст
Идентификатор : 7
Формат : UTF-8
Идентификатор кодека : S_TEXT/UTF8
Идентификатор кодека/Информация : UTF-8 Plain Text
Продолжительность : 1 ч. 33 м.
Битрейт : 80 бит/сек
Count of elements : 1597
Размер потока : 55,4 Кбайт (0%)
Язык : English
Default : Нет
Forced : Нет


_________________
Проголосуй за трекер Открытый торрент трекер - RUS-MEDIA.ORG

Проголосуй Открытый торрент трекер - RUS-MEDIA.ORG


Скачать книги и аудио книги через торрент


Вернуться к началу
 Профиль Отправить личное сообщение  
 
   Похожие торренты   Автор   Торрент   Размер 
В этой теме нет новых непрочитанных сообщений. Мона Лиза / Mona Lisa [Драма, мелодрама, криминал, 1986] BDRip 720p, Mvo [Remastered]

salma3

0 | 0

12.3 ГБ

В этой теме нет новых непрочитанных сообщений. Испанские судьи / Spanish Judges [Драма, криминал, 2000] WEB-DLRip 720p, Mvo

salma3

0 | 0

2.99 ГБ

В этой теме нет новых непрочитанных сообщений. Бассейн утопленников / The Drowning Pool [боевик, триллер, криминал, 1975] HDRip, Mvo

salma3

0 | 0

1.45 ГБ

В этой теме нет новых непрочитанных сообщений. Спаси и сохрани / Благослови дитя / Bless the Child [Ужасы, Триллер, Криминал, 2000] WEB-DLRip 720p, Mvo

salma3

0 | 0

3.41 ГБ

В этой теме нет новых непрочитанных сообщений. Спасите Грейс / Saving Grace [Комедия, криминал, 2000] BDRip 720p, Mvo

salma3

0 | 0

7.41 ГБ

В этой теме нет новых непрочитанных сообщений. Мона Лиза / Mona Lisa [Драма, мелодрама, криминал, 1986] BDRemux 1080p, Mvo [Remastered]

salma3

0 | 0

26.78 ГБ

В этой теме нет новых непрочитанных сообщений. Билли-Фингал / Shiner [Драма, криминал, 2000] WEB-DL 1080p, Mvo

salma3

0 | 0

9.44 ГБ


Начать новую тему Ответить на тему  [ 1 сообщение ] 




Для Мосгорсуда, Роскомнадзора и рекламодателей:: rstracker[собака]yandex.ru
cron