COVID-19 - Последняя информация о коронавирусе на сайте Минздрава




Торрент файл
скачать торрент магнет ссылка Добавлен: 14 янв 2015, 02:03
Размер: 97.54 МБ
Сидеров: 705
Личеров: 16
Автор

СообщениеДобавлено: 14 янв 2015, 02:03 

Не в сети
Супермодератор
Аватара пользователя
Дата регистрации:
06 июн 2014, 07:51
Спасибо: 639 / 0
Сообщения: 1995
Название: Nasty
Исполнитель: The Prodigy
Год: 2015
Жанр: Breakbeat, Breaks
Страна: UK
Продолжительность: 3:41
Треклист:
1. Nasty

Дополнительная информация:
Британская группа The Prodigy опубликовала на канале YouTube видеоролик к треку Nasty. Песня войдет в новый альбом коллектива The Day Is My Enemy, выпуск которого запланирован на 30 марта 2015 года, сообщает NME. Композиция, как и сама будущая пластинка, — первый студийный материал группы с 2009-го.

Качество: HD 1080p
Контейнер: MP4
Видео кодек: AVC
Аудио кодек: AAC
Видео: MPEG4 Video (AVC) 1920x1080 24fps 3571kbps
Аудио: AAC 44,1 КГц stereo 126kbps

Общее
Полное имя : D:The Prodigy - Nasty (1080p).MP4
Формат : MPEG-4
Профиль формата : Base Media
Идентификатор кодека : isom
Размер файла : 97,5 Мбайт
Продолжительность : 3 м. 41 с.
Режим общего битрейта : Переменный
Общий поток : 3699 Кбит/сек
Дата кодирования : UTC 2015-01-06 13:09:03
Дата пометки : UTC 2015-01-06 13:09:03

Видео
Идентификатор : 1
Формат : AVC
Формат/Информация : Advanced Video Codec
Профиль формата : High@L4.0
Параметр CABAC формата : Да
Параметр ReFrames формата : 2 кадра
Идентификатор кодека : avc1
Идентификатор кодека/Информация : Advanced Video Coding
Продолжительность : 3 м. 41 с.
Битрейт : 3571 Кбит/сек
Ширина : 1920 пикселей
Высота : 1080 пикселей
Соотношение сторон : 16:9
Режим частоты кадров : Постоянный
Частота кадров : 24,000 кадра/сек
Цветовое пространство : YUV
Субдискретизация насыщенности : 4:2:0
Битовая глубина : 8 бит
Тип развёртки : Прогрессивная
Бит/(Пиксели*Кадры) : 0.072
Размер потока : 94,1 Мбайт (97%)
Дата кодирования : UTC 2015-01-06 13:09:03
Дата пометки : UTC 2015-01-06 13:09:03

Аудио
Идентификатор : 2
Формат : AAC
Формат/Информация : Advanced Audio Codec
Профиль формата : LC
Идентификатор кодека : 40
Продолжительность : 3 м. 41 с.
Вид битрейта : Переменный
Битрейт : 126 Кбит/сек
Каналы : 2 канала
Расположение каналов : Front: L R
Частота : 44,1 КГц
Метод сжатия : С потерями
Размер потока : 3,31 Мбайт (3%)
Дата кодирования : UTC 2015-01-06 13:08:36
Дата пометки : UTC 2015-01-06 13:08:36



Скачать книги и аудио книги через торрент


Вернуться к началу
 Профиль Отправить личное сообщение  
 
   Похожие торренты   Автор   Торрент   Размер 
В этой теме нет новых непрочитанных сообщений. [LegalPorno.com] You gotta see Kat Monroes first nasty BBC DP one nasty fucking kat AA031 / 02.10.2018 [DP, Gape, Interracial, Anal, Lingerie, Toys, 1080p]

salma3

0 | 0

3.7 ГБ

В этой теме нет новых непрочитанных сообщений. [LegalPorno.com] You gotta see Kat Monroes first nasty BBC DP one nasty fucking kat AA031 / 02.10.2018 [DP, Gape, Interracial, Anal, Lingerie, Toys, 2160p 4K]

salma3

0 | 0

9.75 ГБ

В этой теме нет новых непрочитанных сообщений. [LegalPorno.com] You gotta see Kat Monroes first nasty BBC DP one nasty fucking kat AA031 / 02.10.2018 [DP, Gape, Interracial, Anal, Lingerie, Toys, 720p]

salma3

0 | 0

1.42 ГБ

В этой теме нет новых непрочитанных сообщений. [LegalPorno.com] You gotta see Kat Monroes first nasty BBC DP one nasty fucking kat AA031 / 02.10.2018 [DP, Gape, Interracial, Anal, Lingerie, Toys, 480p]

salma3

0 | 0

815.37 МБ

В этой теме нет новых непрочитанных сообщений. Омен: Перерождение / The Prodigy [Ужасы, триллер, 2019] WEB-DL 1080p, Dub [iTunes]

salma3

117 | 34

4.71 ГБ

В этой теме нет новых непрочитанных сообщений. Чудо-ребёнок / Prodigy [Фантастика, триллер, драма, 2017] BDRip 1080p, Mvo

salma3

0 | 0

7.64 ГБ

В этой теме нет новых непрочитанных сообщений. Омен: Перерождение / The Prodigy [Ужасы, триллер, 2019] BDRemux 1080p, Dub [iTunes]

salma3

0 | 0

22.68 ГБ


Начать новую тему Ответить на тему  [ 1 сообщение ] 




Для Мосгорсуда, Роскомнадзора и рекламодателей:: rstracker[собака]yandex.ru
cron